Категорії каталога

Мои файлы [48]

Форма входу




Онлайн всього: 1
Гостей: 1
Користувачів: 0


Четвер, 14.12.2017, 20:58
Вітаю Вас Гість | RSS
SHARAHOME
Головна | Реєстрація | Вхід
Каталог файлів


Головна » Файлы » Мои файлы

Трахторист
[ Скачати з сервера (302.3Kb) ] 05.10.2011, 21:23
Властивості відео :
Format                                   : MPEG-4
Format profile                           : 3GPP Media Release 4
Codec ID                                 : 3gp4
File size                                : 302 KiB
Duration                                 : 35s 0ms
Overall bit rate                         : 70.7 Kbps
Encoded date                             : UTC 2007-02-15 18:33:08
Tagged date                              : UTC 2007-02-15 18:33:08

Video
ID                                       : 1
Format                                   : H.263
Format profile                           : BaseLine@1.0
Codec ID                                 : s263
Duration                                 : 35s 0ms
Bit rate mode                            : Variable
Bit rate                                 : 63.7 Kbps
Width                                    : 176 pixels
Height                                   : 144 pixels
Display aspect ratio                     : 1.222
Frame rate mode                          : Variable
Frame rate                               : 5.314 fps
Minimum frame rate                       : 2.143 fps
Maximum frame rate                       : 15.002 fps
Compression mode                         : Lossy
Bits/(Pixel*Frame)                       : 0.473
Stream size                              : 272 KiB (90%)
Writing library                          : s60
Encoded date                             : UTC 2007-02-15 18:33:08
Tagged date                              : UTC 2007-02-15 18:33:08

Audio
ID                                       : 2
Format                                   : AMR
Format/Info                              : Adaptive Multi-Rate
Format profile                           : Narrow band
Codec ID                                 : samr
Duration                                 : 35s 0ms
Bit rate mode                            : Variable
Bit rate                                 : 5 592 bps
Channel(s)                               : 1 channel
Sampling rate                            : 8 000 Hz
Bit depth                                : 13 bits
Stream size                              : 23.9 KiB (8%)
Writing library                          : s60
Encoded date                             : UTC 2007-02-15 18:33:08
Tagged date                              : UTC 2007-02-15 18:33:08


Категорія: Мои файлы | Додав: sharahome
Переглядів: 747 | Загрузок: 156 | Рейтинг: 5.0/1 |
Всього коментарів: 0
Додавати коментарі можуть тільки зареєстровані користувачі.
[ Реєстрація | Вход ]

Copyright MyCorp © 2017