Категорії каталога

Мои файлы [48]

Форма входу




Онлайн всього: 1
Гостей: 1
Користувачів: 0


Четвер, 14.12.2017, 20:54
Вітаю Вас Гість | RSS
SHARAHOME
Головна | Реєстрація | Вхід
Каталог файлів


Головна » Файлы » Мои файлы

Собака-барабака
[ Скачати з сервера (318.0Kb) ] 05.10.2011, 18:07
Властивості відео :

Format                                   : MPEG-4
Format profile                           : 3GPP Media Release 4
Codec ID                                 : 3gp4
File size                                : 318 KiB
Duration                                 : 34s 20ms
Overall bit rate                         : 76.6 Kbps
Encoded date                             : UTC 2007-04-10 08:13:26
Tagged date                              : UTC 2007-04-10 08:13:26

Video
ID                                       : 1
Format                                   : H.263
Format profile                           : BaseLine@1.0
Codec ID                                 : s263
Duration                                 : 34s 0ms
Bit rate mode                            : Variable
Bit rate                                 : 63.3 Kbps
Width                                    : 176 pixels
Height                                   : 144 pixels
Display aspect ratio                     : 1.222
Frame rate mode                          : Variable
Frame rate                               : 9.500 fps
Minimum frame rate                       : 3.333 fps
Maximum frame rate                       : 10.000 fps
Compression mode                         : Lossy
Bits/(Pixel*Frame)                       : 0.263
Stream size                              : 263 KiB (83%)
Writing library                          : S60
Encoded date                             : UTC 2007-04-10 08:13:26
Tagged date                              : UTC 2007-04-10 08:13:26

Audio
ID                                       : 2
Format                                   : AMR
Format/Info                              : Adaptive Multi-Rate
Format profile                           : Narrow band
Codec ID                                 : samr
Duration                                 : 34s 20ms
Duration_LastFrame                       : -80ms
Bit rate mode                            : Variable
Bit rate                                 : 11.8 Kbps
Channel(s)                               : 1 channel
Sampling rate                            : 8 000 Hz
Bit depth                                : 13 bits
Stream size                              : 49.0 KiB (15%)
Writing library                          : S60
Encoded date                             : UTC 2007-04-10 08:13:26
Tagged date                              : UTC 2007-04-10 08:13:26



Второй случай с барабакой :

Категорія: Мои файлы | Додав: sharahome
Переглядів: 1048 | Загрузок: 151 | Рейтинг: 5.0/2 |
Всього коментарів: 0
Додавати коментарі можуть тільки зареєстровані користувачі.
[ Реєстрація | Вход ]

Copyright MyCorp © 2017