Категорії каталога

Мои файлы [48]

Форма входу




Онлайн всього: 1
Гостей: 1
Користувачів: 0


Вівторок, 17.10.2017, 20:43
Вітаю Вас Гість | RSS
SHARAHOME
Головна | Реєстрація | Вхід
Каталог файлів


Головна » Файлы » Мои файлы

Пригоди Шуріка (непристойний та цинічний гоблін) уривок
[ Скачати з сервера (1.25Mb) ] 05.10.2011, 21:32
Властивості відео :

Format                                   : MPEG-4
Format profile                           : 3GPP Media Release 4
Codec ID                                 : 3gp4
File size                                : 1.25 MiB
Duration                                 : 1mn 28s
Overall bit rate                         : 118 Kbps
Encoded date                             : UTC 2007-09-25 13:25:12
Tagged date                              : UTC 2007-09-25 13:25:12

Video
ID                                       : 1
Format                                   : MPEG-4 Visual
Format profile                           : Simple@L1
Format settings, BVOP                    : Yes
Format settings, QPel                    : No
Format settings, GMC                     : No warppoints
Format settings, Matrix                  : Default (H.263)
Codec ID                                 : 20
Duration                                 : 1mn 28s
Bit rate mode                            : Constant
Bit rate                                 : 104 Kbps
Nominal bit rate                         : 64.0 Kbps
Width                                    : 176 pixels
Height                                   : 144 pixels
Display aspect ratio                     : 1.222
Original display aspect ratio            : 4:3
Frame rate mode                          : Variable
Frame rate                               : 9.436 fps
Minimum frame rate                       : 3.333 fps
Maximum frame rate                       : 10.000 fps
Color space                              : YUV
Bit depth                                : 8 bits
Scan type                                : Progressive
Compression mode                         : Lossy
Bits/(Pixel*Frame)                       : 0.435
Stream size                              : 1.10 MiB (88%)
Encoded date                             : UTC 2007-09-25 13:25:12
Tagged date                              : UTC 2007-09-25 13:25:12

Audio
ID                                       : 2
Format                                   : AMR
Format/Info                              : Adaptive Multi-Rate
Format profile                           : Narrow band
Codec ID                                 : samr
Duration                                 : 1mn 28s
Bit rate mode                            : Variable
Bit rate                                 : 12.8 Kbps
Channel(s)                               : 1 channel
Sampling rate                            : 8 000 Hz
Bit depth                                : 13 bits
Stream size                              : 138 KiB (11%)
Writing library                          : S60
Encoded date                             : UTC 2007-09-25 13:25:12
Tagged date                              : UTC 2007-09-25 13:25:12


Категорія: Мои файлы | Додав: sharahome
Переглядів: 1449 | Загрузок: 172 | Рейтинг: 4.5/2 |
Всього коментарів: 0
Додавати коментарі можуть тільки зареєстровані користувачі.
[ Реєстрація | Вход ]

Copyright MyCorp © 2017